#TITLE:I Wanna Be The Guy;
#SUBTITLE:For Cloud8745;
#ARTIST:Super Master Gamer;
#TITLETRANSLIT:;
#SUBTITLETRANSLIT:;
#ARTISTTRANSLIT:;
#CREDIT:Dark Bahamut;
#BANNER:For Cloud8745-bn.png;
#BACKGROUND:For Cloud8745-bg.png;
#LYRICSPATH:;
#CDTITLE:dark.gif;
#MUSIC:For Cloud8745.mp3;
#OFFSET:-2.580;
#SAMPLESTART:57.340;
#SAMPLELENGTH:13.680;
#SELECTABLE:YES;
#DISPLAYBPM:8745.000;
#BPMS:0.000=139.970;
#STOPS:;
#BGCHANGES:;
// cache tags:
#FIRSTBEAT:0.000;
#LASTBEAT:526.000;
#SONGFILENAME:Songs/New Folder/For Cloud8745/For Cloud8745.sm;
#HASMUSIC:1;
#HASBANNER:1;
#MUSICLENGTH:230.675;
// end cache tags

//---------------dance-single - Dark Bahamut----------------
#NOTES:
     dance-single:
     Dark Bahamut:
     Challenge:
     8745:
     0.796,1.000,0.819,1.000,0.611,701.000,189.000,347.000,4.000,63.000:

0000
0000
0222
0333
0000
0000
0000
0000
,
0000
0000
0000
0000
0000
0000
2220
3330
,
0000
0000
0000
1000
0002
0000
0103
0000
0000
0000
0000
0000
,
0000
0000
0000
0000
0000
0000
0000
0000
0000
0002
0020
0200
2000
0000
0000
0000
0000
0000
3333
0000
0000
0000
0000
0000
,
0202
0303
0000
0000
2020
3030
0000
0000
0000
0001
0000
0000
0000
0000
0001
0000
,
0000
0000
0000
0000
0000
0000
0000
0000
0000
0001
0000
0000
1000
0000
0000
0010
0000
0000
0100
0000
0000
0002
0000
0000
0000
0000
0000
0003
0010
0000
0000
0000
2000
0000
0000
0000
0000
0000
0000
0000
0000
0000
0000
0000
3100
0000
0000
0000
,
0000
0000
0000
0000
0000
0000
0001
1000
,
0020
0000
0000
0000
0230
0300
0000
0000
,
2200
0000
3300
0000
0000
0000
0000
0000
0000
0000
0010
0000
0000
0100
0000
0000
0010
0000
0000
0000
1000
0000
0000
0000
0000
0000
0000
0000
0000
0000
0000
0000
,
0222
0000
0333
0000
1000
0000
0000
0000
1000
0000
0000
0000
0000
0100
0000
0000
,
0022
0000
0033
0000
0000
0000
0000
0000
0000
0000
0100
0000
0000
0010
0000
0000
0100
0000
0000
0000
0001
0000
0000
0000
0000
0000
0000
0000
0000
0000
0000
0000
,
2220
0000
3330
0000
0001
0000
0000
0000
0001
0000
0000
0000
0000
0010
0000
0000
,
0000
1000
0000
0001
0000
1000
0000
0001
0000
0000
0100
0000
0020
0000
0030
0000
,
2220
0000
0000
3330
0000
0000
0222
0000
0000
0333
0000
0000
0002
0020
0200
2003
0030
0300
3000
0000
0000
0000
0000
0000
,
0000
0000
0001
1000
0101
0000
1010
0000
,
0222
0000
0000
0333
0000
0000
2220
0000
0000
3330
0000
0000
2000
0200
0020
3002
0300
0030
0003
0000
0000
0000
0000
1000
,
0000
0001
0000
0000
0110
0000
0000
0000
0000
0000
0000
0000
2200
0000
0000
3300
0000
0000
0022
0000
0000
0033
0000
0000
,
0220
0000
0000
0330
0000
0000
0000
0000
0000
2220
0000
0000
3330
0000
0000
0222
0000
0000
0333
0000
0000
2000
0200
0020
,
3002
0000
0300
0000
0030
0000
0003
0000
0000
0000
0000
0000
0000
0000
0000
0000
0000
0000
0010
0000
0000
0000
0000
0000
0100
0000
0000
0000
0000
0000
0000
0000
0000
0010
0000
0000
0000
0000
0000
0100
0000
0000
0000
0000
0000
0000
0000
0000
,
0001
0000
0010
0000
0100
0000
1000
0000
0000
0001
0000
0000
0200
0000
0000
0000
0000
0000
0000
0000
0000
0310
0000
0000
,
0000
0000
1000
0000
0000
0001
0000
0000
1000
0000
0000
0001
0000
0000
1000
0000
0000
0001
0000
0000
0000
0000
0000
0000
0010
0000
0000
0000
0100
0000
0000
0000
,
1000
0000
0000
0000
0000
0000
0000
0000
0220
0000
0000
0000
0000
0000
0000
0000
0000
0000
0330
0000
0000
0000
0000
0000
1001
0000
0000
0000
0000
0000
0100
0000
0000
0000
0000
0000
1000
0000
0000
0001
0000
0000
1000
0000
0000
0000
0000
0000
,
0110
0000
0000
0000
0001
1000
0000
0000
1111
0000
0220
0000
0330
0000
0000
0000
,
1000
0000
0000
0000
0001
0000
0000
0000
0100
0000
0000
0000
0010
0000
0000
0000
0000
0000
1001
0000
0000
0100
0000
0000
1001
0000
0000
0000
0000
0000
0000
0000
0000
0000
0000
0000
1000
0000
0000
0000
0000
0000
0001
0000
0000
0100
0000
0000
,
0010
2000
0000
0002
0000
3003
0000
1000
0001
0010
0100
1000
0000
0110
0000
0000
,
0000
0000
0000
0000
0000
0000
1000
0000
0000
0000
0001
0000
0000
0000
1000
0000
0000
0000
0000
0000
0000
0000
0000
0000
0110
0000
0000
0000
0000
0000
0000
0000
0000
0001
0000
0000
1000
0000
0000
0000
0000
0000
0011
0000
0000
0000
0000
0000
,
0000
0000
0000
0101
0000
0000
0000
0000
0000
0000
0000
0000
1001
0000
0000
0000
0000
0000
1001
0000
0000
0000
0000
0000
1010
0000
0000
0000
1100
0000
0000
0000
0000
0000
0000
0000
0222
0000
0000
0000
0000
0000
0333
0000
0000
0000
0000
0000
,
1000
0001
1000
0000
0010
0000
0100
0000
0000
1000
0000
0000
2220
0000
0000
3330
0000
0000
0022
0000
0000
0033
0000
0000
,
2200
0000
3300
0000
0011
0000
1100
0000
0001
0000
1000
0010
0000
0000
0000
0000
,
0200
0000
0300
0000
0000
0000
1000
0000
0000
0010
0000
0000
0001
0000
0100
0000
0000
0000
0000
0000
0000
0000
0000
0000
0001
0000
0000
0000
1000
0000
0000
0000
,
0020
0000
0030
0000
0000
0000
0001
0000
0000
0100
0000
0000
1000
0000
0010
0000
0000
0000
0000
0000
1100
0000
0000
0000
0011
0000
0000
0000
0000
0000
0000
0000
,
1000
0000
0010
0100
0001
0000
1000
0000
0001
0000
1000
0000
0001
0000
1000
0001
,
1000
0010
0100
0000
0010
0000
2002
3003
0000
0000
0000
0000
0000
0000
2220
0000
,
3330
0000
0000
0011
1100
0000
0000
2220
,
3330
0000
0000
0220
0330
0000
0000
0222
,
0333
0000
0000
0000
0000
0000
0220
0000
0330
0000
0000
0000
0000
0000
0000
1000
,
0001
0100
0010
0000
0100
0000
2002
3003
0000
0000
0000
0000
0000
0000
0222
0000
,
0333
0000
0000
0220
0330
0000
0000
0011
,
1100
0000
0000
0220
0330
0000
0000
2220
,
3330
0000
0000
0220
0330
0000
0000
0222
,
0333
0000
2000
0000
0000
0000
0000
3200
0000
0000
0320
0000
0000
0000
0031
0000
,
1010
0000
0101
0000
1001
0000
0000
0000
0000
0000
0000
0000
,
0002
0000
0000
0000
0000
0023
0000
0000
0230
0000
0000
0000
0300
0000
1000
0000
,
0101
0000
0000
0000
1010
0000
0000
0000
1001
0000
0000
0000
0000
0000
0000
0000
0000
0000
0000
0000
0000
0100
0000
0000
,
0001
0000
0000
0000
1000
0000
0000
0000
0000
0010
0000
0000
0100
0000
0000
0001
0000
0000
0010
0000
0000
0000
0000
0000
0000
0000
0000
0000
0000
0000
0000
0000
0000
0000
0000
0000
0000
0000
0000
0000
0000
0000
0002
0000
0000
0003
0000
0000
,
0000
0000
0000
0000
0000
2000
3000
0000
0000
0000
0002
0000
0003
0020
0030
0000
,
0200
0000
0000
0300
0000
0000
2000
3000
0000
0000
0000
0000
0000
0002
0003
0000
,
0000
0000
2000
0000
3000
0200
0300
0000
0020
0000
0000
0030
0000
0000
0000
0000
,
0022
0000
0033
0000
0000
0000
2200
0000
3300
0000
0000
0000
0000
0002
0003
0000
,
0000
0000
0000
0000
0000
0000
0020
0030
0000
0000
0000
0000
0000
0200
0300
0000
,
0000
0000
0000
0000
0000
2000
3000
0000
0000
0002
0000
0003
0000
0020
0030
0000
,
0200
0000
0000
0300
0000
0000
0000
0000
0000
0000
0000
1000
0001
0000
0010
0100
,
1000
0000
0000
0000
0001
0000
0000
0000
0000
0000
0000
0000
0100
0000
0000
0001
0000
0000
1000
0000
0000
0010
0000
0000
0000
0000
0000
1000
0000
0000
0001
0000
0000
0000
0000
0000
0100
0000
0000
0000
0000
0000
1010
0000
0000
0000
0000
0000
,
0101
0000
1000
0001
0100
0000
0000
0000
0000
0000
0000
0000
1000
0001
0000
0100
,
0010
0000
0001
0000
0100
0010
0000
0001
0000
0100
0010
0000
0000
0000
2220
0000
,
3330
0000
0000
0222
0333
0000
0000
2220
,
3330
0000
0000
0000
0002
0000
0000
0000
0000
0203
0000
0000
0320
0000
0000
0030
,
2000
0000
0000
0000
0000
3020
0000
0000
0230
0000
0000
0000
0300
0000
0000
0000
,
0000
0000
2000
0000
0000
0000
0000
3020
0000
0000
0230
0000
0000
0300
0000
0002
,
0000
0000
0000
0000
0203
0000
0000
0320
0000
0000
0000
0030
0000
0000
0000
0000
,
0000
0000
0000
0000
0000
0000
0000
0101
0000
0000
0000
0000
0110
0000
0000
1000
,
0100
0000
0000
0001
0100
0000
0000
0022
0000
0033
2200
0000
3300
0000
0000
0000
,
0000
0000
0000
0000
0000
0000
0000
0000
1010
0000
0000
0000
0000
0110
0000
0000
,
0001
0010
0000
0000
1000
0010
0000
0000
2200
0000
3300
0022
0000
0033
0000
0000
,
1010
0000
0000
0000
0000
0000
0000
0000
0000
0000
0000
0000
0000
0000
0000
0000
0000
0000
0000
0000
0000
0000
0000
0000
0000
0000
0000
0000
0000
0000
0000
0000
0000
0000
0000
0000
0000
0000
0000
0000
0000
0000
0000
0000
0000
0000
0000
0000
0000
0000
0000
0000
0000
0000
0000
0000
0000
0000
0000
0000
0001
0000
0000
0000
0000
0000
0000
0000
0000
0000
0000
0000
0000
0000
0000
0000
0000
0000
1000
0000
0000
0000
0000
0000
0000
0000
0000
0000
0000
0000
0000
0000
0000
0000
0000
0000
0001
0000
0000
0000
0000
0000
0000
0000
0000
0000
0000
0000
0000
0000
0000
0000
0000
0000
0000
0000
0000
0000
0000
0000
0010
0000
0000
0000
0000
0000
0000
0000
0000
0000
0000
0000
0000
0000
0000
0000
0000
0000
0000
0000
0000
0000
0000
0000
0000
0000
0000
0000
0000
0000
0000
0000
0000
0000
0000
0000
0000
0000
0000
0000
0000
0000
0000
0000
0000
0000
0000
0000
0000
0000
0000
0000
0000
0000
0000
0000
0000
0000
0000
0000
0000
0000
0000
0000
0020
0000
0000
0000
0000
0000
0000
0000
,
2202
0000
3333
0000
0010
0000
0000
0000
0010
0000
0000
0000
0000
1000
0000
0000
,
0101
0000
0000
0000
0000
0000
0000
0000
0000
0000
0000
0000
0000
0000
0000
0000
0000
0000
0000
0000
0000
0000
0000
0000
0000
0000
0000
0000
0000
0000
0000
0000
0000
0000
0000
0000
0000
0000
0000
0000
0000
0000
0000
0000
0000
0000
0000
0000
0000
0000
0000
0000
0000
0000
0000
0000
0000
0000
0000
0000
1000
0000
0000
0000
0000
0000
0000
0000
0000
0000
0000
0000
0000
0000
0000
0000
0000
0000
0001
0000
0000
0000
0000
0000
0000
0000
0000
0000
0000
0000
0000
0000
0000
0000
0000
0000
1000
0000
0000
0000
0000
0000
0000
0000
0000
0000
0000
0000
0000
0000
0000
0000
0000
0000
0000
0000
0000
0000
0000
0000
0100
0000
0000
0000
0000
0000
0000
0000
0000
0000
0000
0000
0000
0000
0000
0000
0000
0000
0000
0000
0000
0000
0000
0000
0000
0000
0000
0000
0000
0000
0000
0000
0000
0000
0000
0000
0000
0000
0000
0000
0000
0000
0000
0000
0000
0000
0000
0000
0000
0000
0000
0000
0000
0000
0000
0000
0000
0000
0000
0000
0000
0000
0000
0000
0200
0000
0000
0000
0000
0000
0000
0000
,
2022
0000
0000
3333
0000
0000
0100
0000
0000
0000
0000
0000
0100
0000
0000
0000
0000
0000
0002
0023
0230
2300
0000
0000
,
0000
0000
3000
0000
0000
0000
0000
0000
0000
0000
0000
0000
0000
0000
0000
0000
0000
0000
0000
0000
0000
0000
0000
0000
0000
0000
0000
0000
0000
0000
0000
0000
0000
0000
0000
0000
2200
0000
0000
3300
0000
0000
0022
0000
0000
0033
0000
0000
,
0220
0000
0000
0000
0330
0000
0000
0000
1000
0200
0020
0000
0330
0000
0001
1000
,
0202
0000
0303
2020
3030
0000
0000
0000
0000
0000
0000
0000
0000
0000
0001
0000
,
0001
0000
0010
0000
0010
0000
0100
1000
0200
0000
0000
0000
0300
0000
0001
0000
,
0010
0000
0200
2000
0000
0000
0000
0000
0000
0300
3000
0000
0000
0000
0001
2000
,
0000
0000
0000
0000
0000
3200
0000
0000
0300
0000
0010
0000
0001
0000
0100
0000
,
0000
0000
1000
0000
0010
0000
0000
0000
1000
0000
0000
0000
0001
0000
0000
0000
0110
0000
0000
0000
1001
0000
0000
0000
0000
0110
0000
0000
0000
1001
0000
0000
,
0000
0000
0110
0000
0000
0000
1001
0000
0000
0000
0000
0110
0000
0000
0000
1001
0000
0000
0000
0000
0000
0000
0000
0000
0220
0000
0330
0000
0000
0000
0000
0000
,
2002
3003
0000
0000
0220
0330
0000
0000
1000
0001
1000
0000
0202
0303
0000
0000
,
1000
0000
0000
0001
0000
0000
0010
0000
0001
0000
0000
0000
0000
0000
0000
0000
0100
0000
0001
0000
0000
0000
0000
0000
1000
0000
0002
0000
2000
0000
0003
0000
,
3000
0000
0010
0000
0000
0100
0000
1000
0000
0000
0011
0000
0000
0000
0000
0000
,
1100
0000
0000
0000
0101
0000
0000
0000
1010
0000
0000
0000
0022
0033
0000
0000
,
2020
3030
0000
0000
0202
0303
0000
0000
0000
0000
0000
0000
0010
0000
0001
0000
,
1000
0000
0000
0000
0000
0000
0000
0000
2200
0000
3300
0000
0000
0000
0000
0000
0022
0000
0033
0000
0000
0000
0000
0000
1000
0000
0000
0000
0001
0000
0000
0100
,
0000
0010
0000
0000
2200
3300
0000
0000
0022
0033
0000
0000
0000
0000
0100
0000
,
1000
0001
0200
0000
0320
0000
0030
0000
0000
0000
0000
0000
1000
0000
0000
0001
,
0000
0000
0000
0000
0010
0100
0000
0000
1001
0000
0000
0000
0010
0100
0000
0000
,
1010
0000
0000
0000
0100
0000
1001
0000
0000
0010
0000
0000
0101
0000
0000
0000
0000
0000
0000
0000
0000
0000
0000
0000
0001
0000
1000
0000
0000
0000
0000
0000
,
0011
1100
0000
0010
0001
0000
0000
0000
1000
0001
0000
0000
0110
0000
0000
0000
,
0001
1000
0000
0000
0000
0000
0000
0000
0101
0000
0000
1010
0000
0000
0000
0100
,
0010
0001
1000
0000
0001
0000
0220
0330
0000
0000
0000
0000
0000
0000
2022
0000
,
3033
0000
0000
0101
1010
0000
0000
2022
,
3033
0000
0000
2002
3003
0000
0000
2202
,
3303
0000
0000
0000
0000
0000
2002
0000
3003
0000
0000
0000
0000
0000
0000
0010
,
0100
1000
0001
0000
1000
0000
0220
0330
0000
0000
0000
0000
0000
0000
2202
0000
,
3303
0000
0000
2002
3003
0000
0000
0101
,
1010
0000
0000
2002
3003
0000
0000
0101
,
1010
0000
0000
2002
3003
0000
0000
0101
,
1010
0000
0000
0000
0000
0101
0000
0000
0000
1010
0000
0000
0000
0000
0101
0000
0000
0000
1010
0000
0000
0000
0000
0101
0000
0000
0000
1010
0000
0000
0000
0000
,
0101
0000
0000
0000
1010
0000
0000
0000
0000
0101
0000
0000
0000
1010
0000
0000
0000
0000
0101
0000
0000
0000
1010
0000
0000
0000
0000
0101
0000
0000
0000
1010
,
0000
0000
0000
0000
0000
0000
0000
0001
,
1000
0000
0000
0000
0000
0100
0000
0010
0000
0000
0000
0000
0000
0000
2000
0000
,
3001
0000
0100
0000
0000
0000
2020
0000
3030
0000
0000
2020
0000
3030
0000
0000
,
2020
0000
3030
0000
0000
0000
0001
1000
0010
0000
0000
0000
0000
0100
0000
1000
,
0001
0000
0000
0010
0100
0000
1010
0101
,
0000
0000
1100
0011
0000
0000
1010
0101
,
0000
0000
0000
0000
1000
0001
1000
0001
,
1000
0000
0000
0002
0000
0000
0003
0000
0000
0000
0000
0000
1000
0100
0010
0001
0100
0010
1000
0100
0010
0001
0000
0000
,
0000
0000
0000
0000
1100
0011
0000
0000
,
0000
0000
0000
0000
0000
0000
0000
0000
0001
0000
1000
0010
0000
0000
0101
0000
,
1010
0000
0000
0000
0000
0000
0000
0000
0100
0000
0010
0000
0000
0100
0000
0010
,
1000
0000
0100
0000
0010
0000
0001
0000
0100
0000
0010
0000
1000
0000
0100
0000
0010
0000
0001
0000
0000
0000
0000
0000
0010
0000
0000
0000
0000
0000
0000
0000
0000
0100
0000
0000
0000
0000
0000
0010
0000
0000
0000
0000
0000
0000
0000
0000
,
0010
0000
0001
1000
0010
0100
0000
0000
1000
0000
0000
0000
0000
0000
0000
0000
,
0100
0000
1000
0001
0100
0010
0000
0000
0001
0000
0000
0000
0000
0000
0000
0000
,
1000
0010
0100
0001
1000
0001
1000
0010
0100
0001
0000
0000
1000
0100
0010
0001
0000
0000
0001
0010
0100
1000
0000
0000
,
0010
0000
1000
0000
0001
0100
0010
0000
0000
0000
0000
0000
0000
0000
0000
0000
,
0000
1000
0100
1000
0000
0110
0000
0101
0000
1000
0100
1000
0000
0110
0000
0101
,
0000
0000
0000
0000
1100
0000
0000
0000
0011
0000
0000
0000
0000
0000
0000
0000
2000
0200
0002
0000
3303
0000
0000
0000
2022
0000
0000
0000
3033
0000
0000
0000
,
0200
0002
0000
0300
0013
0000
1000
0000
0000
0000
0000
0000
0000
0000
0000
0000
,
0000
0000
0000
0000
0222
0333
2220
3330
,
0001
0010
0100
1000
0100
1000
0100
0001
0010
0100
1000
0100
1000
0100
0001
0010
0100
1000
0100
1000
0100
0001
0010
0100
,
1000
0100
1000
0100
0001
0010
0100
1000
0100
1000
0100
0000
2022
0000
0000
3033
0000
0000
2202
0000
0000
3303
0000
0000
,
0200
0002
0020
0000
0000
0333
0000
2000
0020
0200
0000
0000
3330
0000
0200
0002
0020
0000
0000
0333
0000
2000
0020
0200
,
0000
0000
3330
0000
0200
0002
0020
0000
0000
0333
0000
0000
2202
0000
0000
3303
0000
0000
2022
0000
0000
3033
0000
0000
,
0200
0020
2000
3330
0000
0020
0002
0200
0333
0000
1000
0001
0000
0100
0010
0001
,
0000
0000
1000
0100
0010
0000
0100
0010
0001
0000
1000
0100
2022
0000
3033
0000
,
2000
0200
0020
3002
0300
0030
0003
0000
0000
0000
0000
0000
0000
0000
0000
0000
0000
0000
0000
0000
0000
0000
0000
0000
,
0000
0000
0000
0000
2220
3330
0222
0333
,
2000
0000
0200
0000
0020
0000
3002
0000
0300
0000
0030
0000
0003
0000
0000
0000
0000
0000
0000
0000
0000
0000
0000
0000
1000
0000
0000
0200
0000
0000
0000
0000
0000
0310
0000
0000
0001
0000
0000
0010
0000
0000
0001
0000
0000
0010
0000
0000
,
0001
0000
0000
0000
1000
0000
0000
0000
0100
0000
0000
0010
0000
0000
0001
0000
0000
0000
0000
0000
1000
0000
0000
0000
0100
0000
0000
0010
0000
0000
0001
0000
0000
0000
0000
0000
0000
0000
0000
0000
0000
0000
2222
0000
0000
0000
0000
0000
,
0000
0000
0000
3333
0000
2222
0000
0000
0000
0000
3333
0000
2222
0000
0000
0000
,
0000
3333
0000
2222
0000
0000
0000
0000
3333
0000
0000
0000
0000
0000
0000
0000
,
0000
0000
0000
0000
,
0000
0000
0000
0000
0000
2222
0000
3333
MMMM
0000
0000
0000
0000
0000
0000
0000
;

//---------------dance-single - Dark Bahamut----------------
#NOTES:
     dance-single:
     Dark Bahamut:
     Hard:
     7:
     0.652,0.683,0.429,1.000,0.046,678.000,99.000,275.000,0.000,56.000:



1100
0100
0110
0010
,
0011
0001
1001
1000
,
1010
0010
0110
0100
,
0101
0000
0001
0000
1001
0000
1000
0100
,
0011
0010
0110
0100
,
1100
1000
1001
0001
,
0101
0100
0110
0010
,
1010
0000
1000
0000
1001
0000
0001
0010
,
2200
3301
2200
3301
,
0220
1330
0022
0133
,
2020
3130
2020
3130
,
2002
0000
3013
0000
0202
0003
0320
1030
,
0022
1033
0022
1033
,
0220
0331
2200
3310
,
0202
0313
0202
0313
,
2002
0000
3103
0000
2020
3000
0230
1300
,
0202
0313
0202
0313
,
2002
3103
2020
3031
,
2200
3301
2200
3301
,
0220
0000
1330
0000
0022
0030
2003
3100
,
2020
3130
2020
3130
,
2002
3013
0202
1303
,
0022
1033
0022
1033
,
0220
0000
0331
0000
2200
0300
3002
0103
,
2010
0001
3200
0320
,
0032
0023
0230
0302
,
0203
2300
3200
0320
,
0032
0000
0203
0000
2300
0000
3100
0010
,
0102
1000
0023
0230
,
2300
3200
0320
2030
,
3020
0032
0023
0230
,
2300
0000
3020
0000
0032
0000
0013
0100
,
1000
0100
1000
0100
1000
0010
0100
0001
,
0010
0100
0001
0010
0100
0001
0010
0001
,
0100
0001
1000
0010
0100
0001
0010
0001
,
1000
0001
0010
0001
0100
0010
1000
0010
,
0001
0010
0001
0010
0001
0100
0010
1000
,
0100
0010
1000
0100
0010
1000
0100
1000
,
0010
1000
0001
0100
0010
1000
0100
1000
,
0001
1000
0100
1000
0010
0100
0001
0100
,
1000
0000
0100
1000
0000
0010
1000
0000
0001
1000
0000
0010
1000
0000
0100
1000
,
0020
0130
0002
1003
,
0001
0000
0010
0001
0000
0100
0001
0000
1000
0001
0000
0100
0001
0000
0010
0001
,
0200
0310
2000
3001
,
0100
0000
0001
0100
0000
1000
0100
0000
0010
0100
0000
1000
0100
0000
0001
0100
,
2000
3001
0020
0130
,
0010
0000
1000
0010
0000
0001
0010
0000
0100
0010
0000
0001
0010
0000
1000
0010
,
0002
1003
0200
0310
,
0100
0001
0010
0001
0100
0001
0010
0001
,
0100
0001
0010
0001
0100
0001
0010
0001
,
0100
0010
1000
0010
0100
0010
1000
0010
,
0100
0010
1000
0010
0100
0010
1000
0100
,
0010
1000
0100
1000
0010
1000
0100
1000
,
0010
1000
0100
1000
0010
1000
0100
1000
,
0010
0100
0001
0100
0010
0100
0001
0100
,
0010
0100
0001
0100
0010
0100
0001
0010
,
1000
0100
0001
0100
1000
0100
0001
0100
,
1000
0100
0001
0100
1000
0100
0001
0100
,
1000
0001
0010
0001
1000
0001
0010
0001
,
1000
0001
0010
0001
1000
0001
0010
1000
,
0001
0010
1000
0010
0001
0010
1000
0010
,
0001
0010
1000
0010
0001
0010
1000
0010
,
0001
1000
0100
1000
0001
1000
0100
1000
,
0001
1000
0100
1000
0001
1000
0100
0001
,
0200
0302
0203
0302
,
0203
0302
0203
0302
,
0023
2030
3020
2030
,
3020
2030
3020
2030
,
3020
0032
0023
0032
,
0023
0032
0023
0032
,
0203
2300
3200
2300
,
3200
0000
2300
0000
3200
0000
2300
3001
,
1000
0100
1000
0100
1000
0010
1000
0010
,
0100
0001
0100
0010
0100
1000
0100
0010
,
0001
0010
0001
0010
0001
0100
0001
0100
,
0010
1000
0010
0100
0010
0001
0010
0100
,
1000
0010
1000
0010
1000
0100
1000
0100
,
0010
0001
0010
0100
0010
1000
0010
0100
,
0001
0100
0001
0100
0001
0010
0001
0010
,
0100
1000
0100
0010
0100
0001
0100
0010
,
2200
3301
2200
3301
,
0220
1330
0022
0133
,
2020
3130
2020
3130
,
2002
0000
3013
0000
0022
0003
0230
1300
,
0022
1033
0022
1033
,
0220
0331
2200
3310
,
0202
0313
0202
0313
,
2002
0000
3103
0000
2200
3000
0320
0031
,
0010
1000
0100
1000
0010
1000
0100
1000
,
0010
1000
0100
1000
0010
1000
0100
1000
,
0010
0100
0001
0100
0010
0100
0001
0100
,
0010
0100
0001
0100
0010
0100
0001
0010
,
0100
0001
0010
0001
0100
0001
0010
0001
,
0100
0001
0010
0001
0100
0001
0010
0001
,
0100
0010
1000
0010
0100
0010
1000
0010
,
0100
0010
1000
0010
0100
0010
1000
0010
,
0202
0313
0202
0313
,
2002
3103
2020
3130
,
0022
1033
0022
1033
,
0220
0000
0331
0000
2200
0300
3020
0031
,
2020
3130
2020
3130
,
2002
3013
0202
0313
,
2200
3301
2200
3301
,
0220
0000
1330
0000
0022
0030
0203
1300
,
0022
0033
0022
0033
,
0220
0330
2200
3300
,
0202
0303
0202
0303
,
2002
0000
3003
0000
2020
3000
0230
0301
,
2200
3300
2200
3300
,
0220
0330
0022
0033
,
2020
3030
2020
3030
,
2002
0000
3003
0000
0202
0003
0320
1030
,
0200
0300
0200
0300
,
0002
0003
2000
3000
,
0200
0300
0200
0300
,
0002
0000
0003
0000
2000
0000
3002
0103
,
0020
0030
0020
0030
,
2000
3000
0002
0003
,
0020
0030
0020
0030
,
2000
0000
3000
0000
0002
0000
2003
3010
,
2000
3000
2000
3000
,
0200
0300
0020
0030
,
2000
3000
2000
3000
,
0200
0000
0300
0000
0020
0000
0230
1300
,
0002
0003
0002
0003
,
0020
0030
0200
0300
,
0002
0003
0002
0003
,
0020
0000
0030
0000
0200
0000
0320
0032
,
0003
0000
0000
0000
,
0000
0000
0000
0000
,
0000
0000
0000
0000
,
0000
0000
0000
0000
0000
1001
0000
0000
0000
0000
0000
0000
0000
0000
0000
0000
;
